Закрыть

COTTOC.NET

Добро пожаловать на сайт COTTOC.NET - качайте бесплатно, качайте с торрента, качайте у нас!
У нас Вы найдете и скачаете:
  • Игры для PC, PSP, XBOX, WII, PS3, PS2
  • Фильмы, мультфильмы, видеоклипы
  • Программы для компьютера
  • Книги, аудиокниги, музыку
Спасибо что выбрали наш сайт
Мы признательны Вам за Ваш выбор. Приятного времяпровождения на нашем сайте.


Информация
TheWord Bible Study Software - ЭлектроннWinamp Full 5.53 Final + PluginsOpera 18SecureDoc v1.13E2Adobe Photoshop CS4 ExtendedWebcam Zone Trigger v2.109 PRO

Скачать игры

Lara Croft GO [2016] RUS/ENG/MULTi6
«Lara Croft GO» — это приключенческая пошаговая стратегия с головоломками, действие которой происходит в затерянном мире. Исследуйте руины древней цивилизации, находите тщательно скрытые секреты и ...

Смотреть онлайн

Джиллиан Майклс - Нет проблемным зонам! | Jillian ...
Добро пожаловать на занятия к одному из самых популярных фитнес-тренеров на телевидении - Джиллиан Майклс. В этой программе она расскажет о своей формуле преображения женского тела и продемонстрирует ...

Скачать фильмы

Пираты Триполи | Pirates of Tripoli [1955]
Это произошло в XVII веке в северной Африке. Армия Малека захватила королевство Мисурата. Принцесса Карджана бежала, Малек приказал найти её и убить. Принцесса направилась в Триполи, это было ...

Скачать игры

Популярные игры

War Thunder
War Thunder«War Thunder» - отличная возможность сразиться онлайн в небе на разнообразных самолетах, а так же сыграть с друзьями в танки



FIFA 15
FIFA 15Игра «FIFA 15» продолжает знаменитую серию футбольных симуляторов FIFA. FIFA 15 поднимает реалистичность виртуального футбола на новую высоту! В этой части ценителей футбола ожидает совершенно новый движок искусственного интеллекта, благодаря которому были улучшены командные элементы игры. Играй в футбол, пройди игру до конца и выиграй кубок мира!



Metro Redux Bundle
Metro Redux Bundle«Metro Redux Bundle» - новый шутер от первого лица, события которого разворачиваются в будущем, после событий великого апокалипсиса. Спуститесь и выживите в Московском метро, где скорее всего прийдется немного пострелять...



Снайпер. Воин-призрак 2
Снайпер. Воин-призрак 2Если ты не любишь спешки на войне, то новая игра «Снайпер. Воин-призрак 2» для тебя. В новой части игры тебе снова предстоит выступить в роли бесшумного убийцы и отправиться на вражескую территорию для уничтожения заданных целей. Готов? Тогда бери свою винтовку и выполни все миссии.



Far Cry
Far CryПолная сборка игровой серии «Far Cry», компьютерной игры, трёхмерного шутера от первого лица. «Far Cry» - отличная возможность проверить свои навыки в стрельбе по врагам.



Crysis 3
Crysis 3Crysis 3 — продолжение популярного шутера на компьютер. Новый Crysis 3 - уникальный шутер, реализованный в ошеломляющей графике, невиданой прежде в любой другой игре.



Medal of Honor Warfighter: Limited Edition
Medal of Honor Warfighter: Limited EditionMedal of Honor Warfighter - новый шутер о «реалистичной» войне, в основе которого лежат воспоминания бойцов элитного подразделения U.S. Tier 1 Operators, не понаслышке знакомых с военными операциями. Вам предстоит на себе ощутить, каково это — сражаться на поле боя в роли солдата самого дисциплинированного и обученного подразделения в мире. Приготовьтесь оказаться в гуще настоящей битвы и сразиться с глобальной угрозой.



Battlefield 4
Battlefield 4В новой игре Battlefield 4 Вам предстоит выступить в роли сержанта Даниеля Рекера, члена группы элитного подразделения Tombstone. Вас ждут захватывающая индивидуальная кампания и сетевые баталии во всех регионах земного шара. Благодаря передовой технологии Frostbite 2 игра Battlefield 4 откроет перед Вами новые горизонты жанра боевика от 1-го лица.



Mafia 2
Mafia 2Мафия бессмертна: долгожданное продолжение знаменитой гангстерской саги от создателей оригинальной игры — новое погружение в беспощадный и интригующий мир, сулящий множество острых ощущений.



S.T.A.L.K.E.R.
S.T.A.L.K.E.R.Антология игры S.T.A.L.K.E.R. Действие этой игры, признанной новым словом в жанре экшен, разворачивается в чернобыльской зоне отчуждения в 2012 году



Скачать бесплатно

Статистика

Mylene Farmer: Stade de France [2009] DVD9 BDRip 720p
Категория: Фильмы > Музыкальные клипы | Опубликовал: aragupegu | Обновление: 20 апреля 2010
Mylene Farmer: Stade de France  [2009] DVD9 BDRip 720p

Название: Mylene Farmer: Stade de France
Год выпуска: 2009г
Страна: Франция/Universal Music
Жанр: Pop
Продолжительность: 02:19:22
Исполнитель: Mylene Farmer, Backing Vocals - Alexia Waku, Aline Bosuma, Estha Divine, Johanna Manchec, Paul Bushnell (Bass), Charlie Paxson (Drums), Guitar - Dave Levita, Greg Suran, Keyboards - Jean-Francois Berger, Yvan Cassar
Размер: 7.47 GB

Треклист:
01. Avant la lumiere
02. D`entre les morts
03. Paradis inanime
04. L`ame-stram-gram
05. Je m`ennuie
06. Outro Haka "Je m`ennuie"
07. Appelle mon numero
08. XXL
09. California
10. Pourvu qu`elles soient douces
11. Point de suture
12. Nous souviendrons nous
13. Rever
14. Laisse le vent emporter tout
15. Ainsi soit je...
16. Interlude Avant que l'ombre
17. Libertine
18. Sans contrefacon
19. L`instant X
20. Fuck Them All
21. Degeneration
22. C'est dans l'air
23. Desenchantee
24. Generique fin

Качество: BDRip 720p
Формат: MKV
Видео кодек: AVC
Аудио кодек: DTS
Видео: 1280x720 at 25 fps, x264, 2pass, L4.1, ~6160 Kbps avg
Aудио: French: 48 kHz, DTS, 3/2 (L,C,R,l,r) + LFE ch, ~1510.00 kbps avg

MediaInfo
Format : Matroska
File size : 7.47 GiB
Duration : 2h 19mn
Overall bit rate : 7 670 Kbps
Encoded date : UTC 2010-04-16 16:38:02
Writing application : mkvmerge v2.9.8 ('C'est le bon') built on Aug 13 2009 12:49:06
Writing library : libebml v0.7.7 + libmatroska v0.8.1
Video #1
ID : 1
Format : AVC
Format/Info : Advanced Video Codec
Format profile : High@L4.1
Format settings, CABAC : Yes
Format settings, ReFrames : 3 frames
Muxing mode : Container profile=Unknown@4.1
Codec ID : V_MPEG4/ISO/AVC
Duration : 2h 19mn
Bit rate : 6 007 Kbps
Nominal bit rate : 6 160 Kbps
Width : 1 280 pixels
Height : 720 pixels
Display aspect ratio : 16:9
Frame rate : 25.000 fps
Resolution : 8 bits
Colorimetry : 4:2:0
Scan type : MBAFF
Bits/(Pixel*Frame) : 0.261
Stream size : 5.85 GiB (78%)
Title : encode by trigue
Writing library : x264 core 80 r1376M 3feaec2
Encoding settings : cabac=1 / ref=4 / deblock=1:0:0 / analyse=0x3:0x133 / me=umh / subme=10 / psy=1 / psy_rd=1.0:0.0 / mixed_ref=1 / me_range=24 / chroma_me=1 / trellis=2 / 8x8dct=1 / cqm=0 / deadzone=21,11 / fast_pskip=1 / chroma_qp_offset=-2 / threads=12 / sliced_threads=0 / slices=4 / nr=0 / decimate=1 / mbaff=1 / constrained_intra=0 / bframes=3 / b_pyramid=1 / b_adapt=2 / b_bias=0 / direct=1 / wpredb=1 / wpredp=0 / keyint=24 / keyint_min=2 / scenecut=40 / rc_lookahead=24 / rc=2pass / mbtree=1 / bitrate=6160 / ratetol=1.0 / qcomp=0.60 / qpmin=10 / qpmax=51 / qpstep=4 / cplxblur=20.0 / qblur=0.5 / vbv_maxrate=40000 / vbv_bufsize=30000 / ip_ratio=1.40 / aq=1:1.00
Language : French
Audio #2
ID : 2
Format : DTS
Format/Info : Digital Theater Systems
Codec ID : A_DTS
Duration : 2h 19mn
Bit rate mode : Constant
Bit rate : 1 510 Kbps
Channel(s) : 6 channels
Channel positions : Front: L C R, Side: L R, LFE
Sampling rate : 48.0 KHz
Resolution : 24 bits
Stream size : 1.47 GiB (20%)
Language : French

Mylene Farmer: Stade de France  [2009] DVD9 BDRip 720pMylene Farmer: Stade de France  [2009] DVD9 BDRip 720pMylene Farmer: Stade de France  [2009] DVD9 BDRip 720p


Mylene Farmer: Stade de France  [2009] DVD9 BDRip 720p

Sms4file | Скачать
XLget | Скачать
Turbobit | 1 | 2 | 3 | 4 | 5 |

RapidShare

Скачать бесплатно: Mylene Farmer клипы видеоклипы видео Pop
 
Уважаемый посетитель, Вы зашли на сайт как незарегистрированный пользователь. Мы рекомендуем Вам зарегистрироваться либо войти на сайт под своим именем.
ОЦЕНИТЬ!
0 (голосов - 0)
Просмотров: 2 353 | Комментариев: 0


Другие новости по теме:
Информация
Посетители, находящиеся в группе Гость, не могут оставлять комментарии к данной публикации.

Качай с торрента!

Новый торрент трекер, где вы можете без труда скачать бесплатно и быстро фильмы, игры, музыку, программы. Нет ничего проще чем скачать фильм или игру с торрента. Нужен фильм? Нужна игра? Нужна программа? Качай быстро, качай бесплатно, качай с торрента!

Фильмы бесплатно

Сайт посвященный кино. На сайте огромная коллекция фильмов разных жанров, в том числе старые ретро фильмы, советские фильмы и просто шедевры мирового кинематографа, вошедшие в список 1000 величайших фильмов мира. Ужасы, триллеры, фантастика, боевики, документальные и многое другое Вы найдете у нас...